#TITLE:Can can;
#SUBTITLE:;
#ARTIST:Audition;
#TITLETRANSLIT:;
#SUBTITLETRANSLIT:;
#ARTISTTRANSLIT:;
#CREDIT:Tony;
#BANNER:Cancan-bn.jpg;
#BACKGROUND:Cancan-bg.jpg;
#LYRICSPATH:;
#CDTITLE:;
#MUSIC:Audition - Can can.mp3;
#OFFSET:-2.060;
#SAMPLESTART:100.000;
#SAMPLELENGTH:12.000;
#SELECTABLE:YES;
#BPMS:0.000=150.000,95.500=75.000,98.500=37.500,99.000=150.000;
#STOPS:;
#BGCHANGES:;
// cache tags:
#FIRSTBEAT:28.000;
#LASTBEAT:413.500;
#SONGFILENAME:Songs/nhac/Audition - Can can/Audition - Can can.sm;
#HASMUSIC:1;
#HASBANNER:1;
#MUSICLENGTH:173.931;
// end cache tags

//---------------dance-single - Blank----------------
#NOTES:
     dance-single:
     Blank:
     Hard:
     12:
     1.000,1.000,1.000,0.805,0.471,859.000,318.000,140.000,0.000,91.000:
0000
0000
0000
0000
,
0000
0000
0000
0000
,
0000
0000
0000
0000
,
0000
0000
0000
0000
,
0000
0000
0000
0000
,
0000
0000
0000
0000
,
0000
0000
0000
0000
,
0200
0000
0000
0000
0000
0000
0000
1311
,
0010
0100
1000
0000
0010
0001
0010
0000
1000
0100
0010
0000
0110
0000
0101
0000
,
0010
0100
1000
0000
0001
0010
0001
0000
0010
0000
0100
0000
1100
0000
0101
0000
,
0100
0010
1001
0010
0100
0010
1001
0010
0100
0001
0110
1000
0100
0000
0101
0000
,
0010
1001
0010
1110
0010
1010
0101
1110
,
0101
0010
1000
0000
0110
1000
0100
0000
1100
0010
0001
0000
0010
0000
0100
0000
,
0001
0010
0001
0000
1000
0100
0011
0000
0001
0010
1100
0000
0110
0000
0111
0000
,
0101
0010
0100
1000
0101
0010
0100
1000
1010
0100
0010
0001
0110
0000
0010
0000
,
1010
0010
0110
1110
0001
0010
0110
0101
,
1000
0100
1010
0000
0010
0001
0110
0000
0100
0010
1001
0000
0100
0000
0001
0000
,
0001
0010
0101
0000
0010
0001
0110
0000
1000
1000
0101
0000
0100
0000
0010
0000
,
0001
0010
1001
0010
0100
0010
0101
1000
0100
1000
0101
0010
0100
0010
0001
0100
,
0010
0001
1010
0100
1000
0010
0100
1000
0110
0001
1010
0000
0100
0000
0111
0000
,
0100
0010
1001
0000
0010
0100
1001
0000
0100
0000
0100
0000
0010
0000
1000
0000
,
0010
0001
0110
0000
1000
0100
0011
0000
0001
0100
1010
0000
1100
0000
0110
0000
,
0010
0100
1001
0100
0010
0001
1010
0100
1000
0100
1010
0001
0010
0100
1001
0100
,
0010
0001
1010
0100
1000
0100
1011
0000
0100
0010
1100
0000
0111
0000
0220
0000
,
0000
0000
0000
0000
0000
0000
1331
1000
,
0101
0010
1100
0100
0011
0100
1010
0001
,
0011
0100
1010
0100
0101
0000
1010
0100
,
1010
0100
0011
0010
1001
0010
0101
0000
,
1010
0000
0000
0000
0101
0000
1000
0000
0011
0000
0100
1000
0110
0000
1000
0000
,
0110
0000
0001
0000
1010
0000
0100
0010
1001
0000
0010
0000
1010
0000
0001
0100
,
1010
1000
0110
0100
1010
0001
0010
1000
,
0100
1000
0010
0001
0010
1000
0100
0001
,
0010
0000
1000
0000
0001
0000
1000
0000
0001
0000
0100
0000
0220
0000
0000
0330
,
0022
0000
0000
0033
2200
0000
0000
3300
0202
0000
0000
0303
0010
0000
0100
0000
,
1000
0000
0001
0000
0010
0000
0001
0000
0010
0000
0000
0000
2200
0000
0000
3300
,
0220
0000
0000
0330
0022
0000
0000
0033
0220
0000
0000
0330
0001
0000
0010
0000
,
0100
0000
0010
0000
0100
0000
1000
0000
1000
0000
0000
0000
0220
0000
0000
0330
,
2200
0000
0000
3300
0022
0000
0000
0033
0220
0000
0000
0330
1000
0000
0100
0000
,
0001
0000
0010
0000
0001
0000
1000
0000
0010
0000
0000
0000
0220
0000
0000
0330
,
2002
0000
0000
3003
0220
0000
0000
0330
0202
0000
0000
0303
1100
0000
0010
0000
,
0100
0000
1000
0100
0011
0000
0100
1000
0110
0000
0100
0000
0010
0000
0100
0001
,
1010
0000
0100
0000
0010
0000
1100
0010
0001
0000
0100
0000
0010
0000
0100
1000
,
1010
0000
0100
0010
1010
0000
0100
0001
0011
0000
0000
1000
1100
0000
0000
0001
,
0110
0000
0000
0100
1010
0001
0010
1000
0101
0010
1000
0100
0010
0001
0011
0101
,
1001
0001
2120
0000
0000
0000
0000
0000
0000
0000
0000
0000
3131
0000
1000
0000
,
1000
0010
0100
0010
0100
0011
2200
0011
,
3322
1100
0133
0100
0001
1100
0220
1001
,
2332
0110
3103
0010
1000
0001
1000
0110
,
0001
0000
0010
0000
0100
0000
1000
0000
0100
0010
0100
0010
1101
0000
0100
0000
,
0001
0000
0010
0000
0001
0000
0100
0000
0010
0000
0001
0000
0202
0000
1010
0303
,
2020
0000
0101
3030
1000
0000
0001
0000
0100
0000
0010
0000
2020
0000
0101
3030
,
0220
0000
1001
0330
1010
0000
0100
0000
0011
0000
0100
0000
0101
0010
0001
0100
,
1010
0100
0010
0001
0110
0000
1000
0000
0101
0010
1100
0010
2002
0000
0110
3003
,
0220
0000
1001
0330
1001
0000
0100
0000
0010
0000
0100
0000
0022
0000
1100
0033
,
2200
0000
0011
3300
1000
0000
0110
0000
0100
0000
0010
0000
0220
0000
1001
0330
,
0022
0000
1100
0033
0100
0000
0010
0000
0101
0000
0010
0000
0100
0000
0010
0000
,
0001
0000
1000
0000
0001
0000
1000
0000
0100
1000
0101
0001
1011
0000
0100
0000
,
0010
0000
0100
0000
0001
0000
0010
0000
0100
0000
1000
0000
2002
0000
0010
3003
,
0220
0000
1001
0330
1000
0000
0100
0000
0010
0000
0001
0000
0202
0000
1010
0303
,
2002
0000
0110
3003
0110
0000
0100
0000
0101
0000
1000
0000
1010
0000
0100
0000
,
0011
0000
1000
0000
2002
0000
0000
3003
1111
0000
0011
0000
0100
0000
1000
0000
,
0100
0010
0100
0001
0001
1000
0100
0010
,
0100
0001
1000
0001
0100
0000
0100
1000
,
0010
0100
0001
0010
0100
0010
1001
0000
,
0101
0000
0000
0000
1010
0000
0001
0000
0100
0000
0100
0010
1100
0000
0001
0000
,
1000
0000
0100
0000
1000
0000
0010
0100
1001
0000
0100
0000
0100
0000
1001
0010
,
1100
1000
0100
0000
0110
0100
1101
1010
,
0111
0110
1101
1100
1011
0110
1101
1010
,
0111
1100
1110
1001
1011
0101
1012
0110
,
1010
1100
0110
1010
1110
0110
2113
0011
,
0111
0000
0110
0000
0101
0000
0110
0000
0011
0000
0101
0000
0010
0100
3010
0010
,
1010
0000
0100
0000
1000
0000
0101
0000
0010
0000
0001
0000
1000
0100
0010
0001
0010
0100
1000
0100
0010
0001
0010
0000
1101
0000
0000
0000
1001
0000
0000
0000
,
0100
0000
0010
0000
0101
0000
0001
0000
0010
0000
0100
0000
0220
0000
1001
0330
,
2002
0000
0110
3003
0100
0000
0010
0000
0100
0000
0001
0000
0202
0000
1000
0303
,
2020
0000
0101
3030
0100
0000
0001
0000
0010
0000
0100
0000
0010
0000
1000
0000
,
0001
0000
0100
0000
0010
0000
0100
0000
1000
0100
1010
1001
1110
0000
0001
0000
,
0010
0000
1000
0000
0110
0000
0100
0000
0101
0000
0100
0000
0220
0000
1001
0330
,
2020
0000
0101
3030
0010
0000
0100
0000
0010
0000
1000
0000
0202
0000
1010
0303
,
2002
0000
0110
3003
0011
0000
0100
0000
1010
0000
0100
0000
1010
0010
0110
1000
,
1100
0010
0101
1000
0222
0000
0000
0000
1333
0000
0010
1000
0110
0000
0001
0000
,
0010
0000
0100
0000
0001
0000
1000
0000
0100
0000
0010
0000
2200
0000
0011
3300
,
0220
0000
1001
0330
1000
0000
0100
0000
0100
0000
0001
0000
0202
0000
1010
0303
,
2200
0000
0011
3300
0010
0000
0100
0000
0001
0000
1000
0000
0100
0000
0010
0000
,
0001
0000
1000
0000
0001
0000
1000
0000
0011
1100
0011
1100
0110
0000
0100
0000
,
0001
0000
0010
0000
1010
0000
0110
0000
1010
0000
0101
0000
0202
0000
1010
0303
,
2020
0000
0101
3030
0101
0000
0110
0000
1010
0000
1100
0000
0022
0000
1100
0033
,
2200
0000
0011
3300
0011
0000
0101
0000
1001
0000
0001
0000
0101
0000
0010
0100
,
1010
0000
1100
0010
0101
0000
0101
0010
0001
0000
0100
0010
0001
0010
1000
0100
,
0011
0100
1001
0010
1100
0001
1000
0100
0010
0100
0010
0001
0101
0000
0010
0000
,
0001
0000
1000
0010
1100
0000
0010
0100
0011
0000
0001
1010
0100
0000
0100
0010
,
1001
0000
1100
0010
0101
0000
0011
0100
1001
0010
0001
1000
0101
0000
0100
0010
,
1000
0010
1000
0010
0100
0001
0100
0001
0010
0100
0010
0100
1000
0100
1000
0100
,
0010
0100
0010
0100
0010
0001
0010
0001
0010
0100
0010
0001
1110
0000
1100
0010
,
1001
0010
1100
0010
0001
0001
0010
0100
1001
1000
0100
0010
0001
0001
0010
0100
,
1001
1000
0100
0010
0001
0001
0010
0100
1010
1000
0110
0001
1110
0000
0000
0000
,
0100
0010
0001
0100
0001
1000
0100
0010
,
0100
0000
0001
0000
1000
0000
0100
0000
0001
0000
0100
0000
0222
0000
0000
0333
,
1001
0100
0010
1000
0100
1000
0001
0010
,
1000
0100
1000
0100
0001
1000
2220
3330
,
0202
0000
0000
0303
2220
0000
0000
3330
0222
0000
0000
0333
2220
0000
0000
0000
,
0000
0000
0000
3330
0222
0000
0000
0000
0000
0000
0000
0333
2220
0000
0000
0000
,
0000
0000
0000
3330
2022
0000
0000
0000
0000
0000
0000
3033
2002
0000
0000
0000
,
0000
0000
0000
0110
,
0000
0000
0000
3003
0000
0000
0000
0000
;
